<?xml version="1.0" standalone="no"?>
<!DOCTYPE svg PUBLIC "-//W3C//DTD SVG 1.1//EN" "http://www.w3.org/Graphics/SVG/1.1/DTD/svg11.dtd" >
<svg xmlns="http://www.w3.org/2000/svg">
<metadata></metadata>
<defs>
<font id="sinkin_sans300_light" horiz-adv-x="680" >
<font-face units-per-em="1000" ascent="810" descent="-190" />
<missing-glyph horiz-adv-x="310" />
<glyph horiz-adv-x="1000" />
<glyph horiz-adv-x="1000" />
<glyph horiz-adv-x="333" />
<glyph unicode="&#x9;" horiz-adv-x="1000" />
<glyph unicode="&#xa;" horiz-adv-x="1000" />
<glyph unicode="&#xd;" horiz-adv-x="1000" />
<glyph horiz-adv-x="1000" />
<glyph horiz-adv-x="1000" />
<glyph horiz-adv-x="1000" />
<glyph horiz-adv-x="1000" />
<glyph horiz-adv-x="1000" />
<glyph horiz-adv-x="1000" />
<glyph horiz-adv-x="1000" />
<glyph unicode=" "  horiz-adv-x="310" />
<glyph unicode="&#x09;" horiz-adv-x="310" />
<glyph unicode="&#xa0;" horiz-adv-x="310" />
<glyph unicode="!" horiz-adv-x="276" d="M70 66q0 34 18 54.5t50 20.5q33 0 50.5 -20t17.5 -55t-18 -55.5t-50 -20.5q-33 0 -50.5 20.5t-17.5 55.5zM93 810h89l-24 -608h-41z" />
<glyph unicode="&#x22;" horiz-adv-x="348" d="M55 840h81l-23 -289h-35zM212 840h81l-23 -289h-35z" />
<glyph unicode="#" horiz-adv-x="696" d="M30 215v73h127l-1 9l55 216l7 9h-111v73h129l-3 9l54 206h62l-53 -206l-6 -9h213l-2 10l54 205h62l-53 -205l-6 -10h108v-73h-127l2 -9l-56 -216l-6 -9h110v-73h-129l2 -8l-54 -207h-62l53 206l6 9h-212l2 -9l-54 -206h-62l53 205l7 10h-109zM212 288h213l-2 9l56 216 l7 9h-215l2 -9l-54 -216z" />
<glyph unicode="$" horiz-adv-x="706" d="M55 104l58 54q56 -50 105.5 -73t113.5 -27l-4 7v273l4 6q-12 4 -30 8t-20 5q-109 30 -160 72t-51 115q0 77 66 133t195 60l-4 8v94h53v-95l-4 -8q141 -10 234 -104l-55 -53q-75 81 -179 90l4 -7v-251l-4 -6q11 -3 26.5 -7t26 -7t14.5 -4q192 -50 192 -195 q0 -81 -61.5 -138t-197.5 -63l4 -7v-94h-53v94l4 7q-173 8 -277 113zM146 548q0 -47 40.5 -75t134.5 -53l11 -3l-4 9v237l4 7q-91 -4 -138.5 -37.5t-47.5 -84.5zM376 58q92 5 139 39t47 89q0 95 -142 134l-44 12l5 -7v-260z" />
<glyph unicode="%" horiz-adv-x="853" d="M30 591q0 100 44 165t123 65q80 0 124 -64.5t44 -165.5t-43.5 -162.5t-124.5 -61.5t-124 62t-43 162zM98 591q0 -72 24 -114.5t75 -42.5q100 0 100 157q0 162 -99 162q-100 0 -100 -162zM248 -10l291 830h68l-291 -830h-68zM488 213q0 100 44.5 165t123.5 65 q80 0 123.5 -64t43.5 -166q0 -100 -43 -162t-124 -62t-124.5 62t-43.5 162zM556 213q0 -156 99 -156q100 0 100 156q0 162 -99 162q-100 0 -100 -162z" />
<glyph unicode="&#x26;" horiz-adv-x="730" d="M55 202q0 73 56 131t160 109l-10 3q-38 44 -47 57q-51 60 -51 131q0 77 55 131t132 54q79 0 134.5 -54t55.5 -131q0 -70 -44 -116t-138 -93l10 -5q192 -221 220 -255l3 -8q33 48 33 94h73q-1 -32 -18.5 -71.5t-45.5 -71.5l5 -2l92 -105h-84l-51 59l-2 8q-90 -79 -242 -79 q-134 0 -215 57.5t-81 156.5zM131 202q0 -50 30.5 -84t79 -48.5t111.5 -14.5q122 0 196 64l-8 4l-232 268l-1 9q-5 -3 -17 -9.5t-15.5 -8.5t-13.5 -7.5t-13.5 -8t-11 -7t-12 -8t-11.5 -8.5t-13 -9.5t-13 -10.5q-56 -53 -56 -121zM228 630q0 -41 31 -83q7 -10 22.5 -28 t26.5 -32l12 -13l1 -8q32 16 49 25t40.5 25.5t35 31t20 36t8.5 47.5q0 33 -16.5 61t-44.5 44t-61 16q-52 0 -88 -35t-36 -87z" />
<glyph unicode="'" horiz-adv-x="191" d="M55 840h81l-23 -289h-35z" />
<glyph unicode="(" horiz-adv-x="242" d="M40 358q0 281 143 549h49q-120 -262 -120 -536q0 -308 120 -562h-49q-143 270 -143 549z" />
<glyph unicode=")" horiz-adv-x="242" d="M10 -191q120 254 120 562q0 277 -120 536h49q143 -268 143 -549q0 -279 -143 -549h-49z" />
<glyph unicode="*" horiz-adv-x="571" d="M55 589l194 34l-160 114l33 42l147 -130l-10 196h54l-11 -197l146 131l34 -42l-160 -114l194 -34l-12 -53l-188 54l93 -172l-48 -24l-76 182l-76 -182l-48 23l95 172l-189 -53z" />
<glyph unicode="+" horiz-adv-x="673" d="M90 370v70h216l-3 7v226h68v-226l-4 -7h216v-70h-216l4 -7v-225h-68v225l3 7h-216z" />
<glyph unicode="," horiz-adv-x="266" d="M60 66q0 34 18 54.5t50 20.5q33 0 50.5 -20t17.5 -55q0 -26 -12 -48l-78 -163l-46 20l52 109l9 7q-61 4 -61 75z" />
<glyph unicode="-" horiz-adv-x="375" d="M30 290v70h315v-70h-315z" />
<glyph unicode="." horiz-adv-x="266" d="M60 66q0 34 18 54.5t50 20.5q33 0 50.5 -20t17.5 -55t-18 -55.5t-50 -20.5q-33 0 -50.5 20.5t-17.5 55.5z" />
<glyph unicode="/" horiz-adv-x="217" d="M-70 -50l290 910h67l-290 -910h-67z" />
<glyph unicode="0" horiz-adv-x="730" d="M55 400q0 190 83 305t227 115q146 0 228 -114.5t82 -305.5t-80 -300.5t-230 -109.5q-149 0 -229.5 109.5t-80.5 300.5zM128 400q0 -98 21 -171.5t75.5 -122.5t139.5 -49q64 0 111.5 26t74.5 74t39.5 108t12.5 135q0 73 -11.5 132.5t-37 111t-73.5 80.5t-115 29 q-64 0 -111 -28.5t-74 -78.5t-39.5 -111.5t-12.5 -134.5z" />
<glyph unicode="1" horiz-adv-x="371" d="M20 619l191 191h60v-810h-70v662l6 75h-2l-51 -66l-93 -94z" />
<glyph unicode="2" horiz-adv-x="656" d="M55 124q-2 90 47.5 164t148.5 109l109 39q89 32 128.5 71.5t39.5 96.5q0 65 -47 107t-145 42q-134 0 -212 -100l-51 54q99 113 263 113q69 0 122 -18.5t83 -50.5t45 -69t15 -78q0 -78 -46 -134.5t-153 -94.5l-129 -47q-72 -25 -109.5 -80t-37.5 -133q0 -3 0.5 -20.5 t0.5 -20.5l-7 -7h480v-67h-543z" />
<glyph unicode="3" horiz-adv-x="675" d="M55 104l52 53q88 -100 220 -100q109 0 164.5 48.5t55.5 113.5q0 72 -51 116.5t-148 54.5q-36 4 -114 4v64q101 4 109 5q97 10 142 54t45 101q0 59 -49.5 96.5t-153.5 37.5q-129 0 -212 -94l-52 55q99 107 264 107q142 0 209.5 -58.5t67.5 -143.5q0 -59 -39.5 -107.5 t-111.5 -78.5v-3q84 -27 125.5 -83t41.5 -127q0 -42 -16 -81t-49 -73t-91.5 -54.5t-135.5 -20.5q-168 0 -273 114z" />
<glyph unicode="4" horiz-adv-x="695" d="M40 196v57l450 557h60v-540l-5 -7h110v-67h-110l5 -7v-189h-70v189l4 7h-444zM121 263h363l-4 7v329l5 109h-2l-52 -71l-257 -319l-53 -53v-2z" />
<glyph unicode="5" horiz-adv-x="690" d="M55 125l49 51q89 -120 231 -120q112 0 169.5 60t57.5 144q0 82 -55 143.5t-162 61.5q-142 0 -223 -93l-48 47l45 391h458v-67h-404l5 -7l-24 -186l-19 -90l2 -2q83 73 208 73q141 0 215.5 -78t74.5 -193q0 -73 -29.5 -132.5t-99 -99t-171.5 -39.5q-95 0 -159.5 31 t-120.5 105z" />
<glyph unicode="6" horiz-adv-x="724" d="M55 386q0 80 17.5 153.5t53.5 138t100.5 103.5t149.5 39q168 0 265 -112l-53 -54q-76 99 -212 99q-68 0 -118.5 -31t-78 -83t-40 -110t-12.5 -121v-19h2q84 142 249 142q141 0 217 -78.5t74 -192.5q-2 -112 -78.5 -191.5t-222.5 -79.5q-151 0 -232 108t-81 289zM148 259 q-2 -79 57.5 -141t164.5 -62q100 0 163 61.5t65 141.5q1 79 -57 142.5t-165 63.5q-102 0 -164.5 -64t-63.5 -142z" />
<glyph unicode="7" horiz-adv-x="635" d="M30 743v67h575v-64l-217 -294q-51 -68 -71.5 -142t-20.5 -178v-132h-70v138q0 114 23 192.5t80 156.5l140 188l59 66v2h-498z" />
<glyph unicode="8" horiz-adv-x="727" d="M55 224q0 144 166 205v3q-71 34 -104 76t-33 104q0 87 67.5 147.5t209.5 60.5q143 0 213 -61t70 -147q0 -61 -33.5 -102.5t-104.5 -77.5v-2q166 -62 166 -206q0 -42 -18.5 -82t-54.5 -75t-97 -56t-138 -21q-149 0 -229 71.5t-80 162.5zM128 226q0 -65 63 -117t172 -52 t172.5 52t63.5 117q0 74 -66 124t-170 50t-169.5 -50.5t-65.5 -123.5zM157 605q0 -57 55 -103.5t151 -46.5q97 0 152 46t55 104q0 61 -51 104t-155 43q-103 0 -155 -43.5t-52 -103.5z" />
<glyph unicode="9" horiz-adv-x="724" d="M55 544q0 129 85 202.5t215 73.5q84 0 146.5 -33t98 -90t52.5 -125.5t17 -147.5q0 -80 -17.5 -153.5t-53.5 -138.5t-100.5 -104t-149.5 -39q-168 0 -265 113l52 54q77 -100 213 -100q67 0 117.5 31t78 83t40.5 110t13 121v20h-2q-87 -143 -249 -143q-126 0 -208.5 71 t-82.5 195zM126 547q0 -90 65 -146t157 -56t160 59.5t68 149.5q0 89 -65.5 144t-156.5 55t-159.5 -58t-68.5 -148z" />
<glyph unicode=":" horiz-adv-x="276" d="M70 65q0 34 18 54.5t50 20.5q33 0 50.5 -20t17.5 -55t-18 -55.5t-50 -20.5q-33 0 -50.5 20.5t-17.5 55.5zM70 534q0 34 18 54.5t50 20.5q33 0 50.5 -20t17.5 -55t-17.5 -55t-50.5 -20t-50.5 20t-17.5 55z" />
<glyph unicode=";" horiz-adv-x="276" d="M70 535q0 34 18 54.5t50 20.5q33 0 50.5 -20t17.5 -55t-17.5 -55t-50.5 -20t-50.5 20t-17.5 55zM71 66q0 35 17.5 55t49.5 20q33 0 50.5 -20t17.5 -55q0 -24 -11 -48l-78 -163l-46 20l52 109l8 7q-60 4 -60 75z" />
<glyph unicode="&#x3c;" horiz-adv-x="490" d="M55 405l297 297l48 -50l-195 -190l-67 -56v-2l67 -56l195 -188l-49 -50z" />
<glyph unicode="=" horiz-adv-x="675" d="M90 261v68h495v-68h-495zM90 481v68h495v-68h-495z" />
<glyph unicode="&#x3e;" horiz-adv-x="490" d="M90 160l195 188l67 56v2l-67 56l-195 190l48 50l297 -297l-296 -295z" />
<glyph unicode="?" horiz-adv-x="609" d="M55 706q99 114 257 114q110 0 176 -63.5t66 -140.5q0 -62 -35.5 -110t-92.5 -71l-38 -16q-64 -26 -83.5 -62.5t-19.5 -115.5v-38h-70v47q0 96 29.5 147.5t121.5 89.5l23 9q48 19 70 48t22 72q0 52 -50 94.5t-120 42.5q-125 0 -202 -100zM183 66q0 35 17.5 55t50.5 20 q32 0 50 -20.5t18 -54.5q0 -35 -18 -55.5t-50 -20.5q-33 0 -50.5 20.5t-17.5 55.5z" />
<glyph unicode="@" horiz-adv-x="990" d="M70 419q0 115 60.5 213.5t161.5 155.5t216 57q168 0 290 -116.5t122 -283.5q0 -104 -65.5 -193.5t-162.5 -89.5q-78 0 -112 69h-2q-28 -34 -71 -52.5t-83 -18.5q-75 0 -116.5 57t-41.5 139q0 69 28 133t84.5 107.5t128.5 43.5q34 0 67.5 -19.5t46.5 -48.5h2l16 58h65 l-65 -257q-11 -49 -11 -85q0 -29 22 -50t50 -21q54 0 92 39.5t53 88.5t15 98q0 145 -103 249.5t-247 104.5q-157 0 -269 -112.5t-112 -268.5q0 -165 109.5 -279t273.5 -114q104 0 196 59l38 -36q-106 -72 -228 -72q-192 0 -320 126t-128 319zM337 369q0 -150 105 -150 q51 0 87.5 39t51.5 89.5t15 102.5q0 135 -100 135q-49 0 -87 -37.5t-55 -85.5t-17 -93z" />
<glyph unicode="A" horiz-adv-x="803" d="M15 0l356 810h62l355 -810h-77l-91 205l3 7h-443l2 -7l-90 -205h-77zM210 279h383l-8 7l-160 365l-22 76h-2l-24 -76l-160 -366z" />
<glyph unicode="B" horiz-adv-x="763" d="M90 0v810h349q118 0 180 -61t62 -151q0 -53 -26.5 -99t-77.5 -71v-2q141 -50 141 -202q0 -105 -68.5 -164.5t-201.5 -59.5h-358zM156 67h292q194 0 194 157q0 76 -49.5 118t-145.5 42h-291l7 -7v-302zM156 451h272q91 0 134 40t43 107q0 145 -177 145h-272l7 -8v-278z " />
<glyph unicode="C" horiz-adv-x="755" d="M55 400q0 190 101.5 305t283.5 115q184 0 285 -114l-54 -53q-79 100 -231 100q-80 0 -141.5 -28t-98 -77.5t-54.5 -111.5t-18 -136q0 -152 76.5 -247.5t234.5 -95.5q152 0 232 99l52 -52q-101 -114 -284 -114q-187 0 -285.5 110t-98.5 300z" />
<glyph unicode="D" horiz-adv-x="801" d="M90 0v810h297q88 0 154.5 -24t104.5 -61.5t61.5 -92.5t31 -108.5t7.5 -118.5q0 -66 -7.5 -119t-30.5 -108.5t-61 -92.5t-103 -61t-153 -24h-301zM153 67h228q73 0 127 19t85 49t49.5 76t24.5 91t6 103t-6 103t-25 91t-51 76t-86 49t-128 19h-224l7 -8v-661z" />
<glyph unicode="E" horiz-adv-x="730" d="M90 0v810h570v-67h-507l7 -7v-291l-7 -6h459v-68h-459l7 -6v-291l-7 -7h507v-67h-570z" />
<glyph unicode="F" horiz-adv-x="670" d="M90 0v810h550v-67h-487l7 -7v-312l-7 -6h439v-67h-439l7 -7v-344h-70z" />
<glyph unicode="G" horiz-adv-x="860" d="M55 397q0 196 102.5 309.5t285.5 113.5q194 0 295 -112l-54 -53q-81 98 -241 98q-156 0 -235.5 -95t-79.5 -261q0 -161 77.5 -250.5t231.5 -89.5q124 0 201 86.5t73 222.5l7 7h-272v67h324v-440h-57v148h-2q-36 -76 -111 -117t-163 -41q-182 0 -282 108t-100 299z" />
<glyph unicode="H" horiz-adv-x="820" d="M90 0v810h70v-365l-7 -6h514l-7 6v365h70v-810h-70v365l7 6h-514l7 -6v-365h-70z" />
<glyph unicode="I" horiz-adv-x="260" d="M95 0v810h70v-810h-70z" />
<glyph unicode="J" horiz-adv-x="585" d="M0 104l50 50q33 -43 80.5 -70t93.5 -27q86 0 146 55.5t60 176.5v521h70v-516q0 -160 -77 -232t-199 -72q-66 0 -124.5 30.5t-99.5 83.5z" />
<glyph unicode="K" d="M90 0v810h70v-810h-70zM170 409l399 400h98l-401 -398v-2l414 -409h-102z" />
<glyph unicode="L" horiz-adv-x="628" d="M90 0v810h70v-736l-7 -7h460v-67h-523z" />
<glyph unicode="M" horiz-adv-x="950" d="M90 0v810h62l280 -575l42 -93h2l42 94l279 574h63v-810h-70v655h-2l-57 -139l-255 -527h-2l-257 530l-55 136h-2v-655h-70z" />
<glyph unicode="N" horiz-adv-x="820" d="M90 0v810h67l448 -612l53 -90h2v702h70v-810h-67l-448 613l-53 89h-2v-702h-70z" />
<glyph unicode="O" horiz-adv-x="844" d="M55 400q0 191 95.5 305.5t271.5 114.5q177 0 272 -114t95 -306q0 -189 -96 -299.5t-271 -110.5q-177 0 -272 110t-95 300zM128 400q0 -152 72.5 -247.5t221.5 -95.5q77 0 135 27t92 74.5t50.5 108t16.5 133.5q0 72 -16.5 133.5t-50 112t-92 79t-135.5 28.5t-134.5 -28 t-92 -77.5t-51 -111.5t-16.5 -136z" />
<glyph unicode="P" horiz-adv-x="747" d="M90 0v810h358q121 0 187.5 -67.5t66.5 -177.5q0 -107 -67.5 -176t-187.5 -69h-294l7 -8v-312h-70zM153 387h294q89 0 135.5 49t46.5 129q0 82 -46.5 130t-135.5 48h-294l7 -7v-342z" />
<glyph unicode="Q" horiz-adv-x="857" d="M55 406q0 190 95.5 302t271.5 112q177 0 272 -111.5t95 -302.5q0 -173 -75 -279l128 -127l-47 -48l-124 125q-100 -87 -249 -87q-177 0 -272 112.5t-95 303.5zM128 406q0 -152 73 -251t221 -99q118 0 193 65l11 1l-134 134l46 48l129 -130v11q49 83 49 221 q0 72 -16.5 132.5t-50.5 109.5t-92 77t-135 28t-134.5 -27t-92 -75.5t-51 -109.5t-16.5 -135z" />
<glyph unicode="R" horiz-adv-x="760" d="M90 0v810h342q114 0 187 -61t73 -173q0 -78 -44 -133t-128 -80v-2q75 -30 117 -118l118 -243h-82l-100 212q-33 69 -84.5 101t-133.5 32h-202l7 -8v-337h-70zM153 412h269q90 0 143.5 45t53.5 119q0 86 -51.5 126.5t-135.5 40.5h-279l7 -8v-316z" />
<glyph unicode="S" horiz-adv-x="741" d="M50 113l57 55q64 -58 128 -84.5t141 -26.5q112 0 177 41t65 110q0 50 -42 89.5t-125 62.5q-9 3 -74 20.5t-74 20.5q-121 35 -179 81t-58 125q0 88 76.5 150.5t227.5 62.5q184 0 293 -114l-54 -53q-90 100 -238 100q-111 0 -171.5 -39.5t-60.5 -102.5q0 -53 48.5 -85 t156.5 -62q4 -1 62 -17.5t69 -19.5q112 -31 164 -86.5t52 -126.5q0 -92 -75.5 -158t-235.5 -66q-96 0 -184.5 31.5t-145.5 91.5z" />
<glyph unicode="T" horiz-adv-x="690" d="M20 743v67h650v-67h-295l5 -7v-736h-70v736l5 7h-295z" />
<glyph unicode="U" horiz-adv-x="832" d="M85 370v440h70v-439q0 -314 261 -314t261 314v439h70v-440q0 -380 -330 -380q-168 0 -250 95t-82 285z" />
<glyph unicode="V" horiz-adv-x="783" d="M15 810h80l266 -648l30 -92h3l30 93l266 647h78l-338 -810h-77z" />
<glyph unicode="W" horiz-adv-x="1014" d="M25 810h75l167 -629l21 -114h1l20 114l170 629h57l170 -634l20 -109h1l20 110l167 633h75l-219 -810h-89l-152 572l-21 107h-1l-22 -106l-152 -573h-90z" />
<glyph unicode="X" horiz-adv-x="714" d="M20 0l294 407l-291 403h89l195 -270l50 -81h2l50 81l195 270h87l-289 -403l292 -407h-89l-194 270l-54 87h-2l-53 -87l-194 -270h-88z" />
<glyph unicode="Y" horiz-adv-x="752" d="M15 810h89l218 -318l54 -90h1l54 90l218 318h88l-325 -468v-342h-71v342z" />
<glyph unicode="Z" horiz-adv-x="764" d="M60 0v53l493 628l60 60v2h-543v67h629v-57l-484 -616l-68 -68v-2h557v-67h-644z" />
<glyph unicode="[" horiz-adv-x="279" d="M60 -190v1097h209v-56h-148v-987h148v-54h-209z" />
<glyph unicode="\" horiz-adv-x="297" d="M-30 860h67l290 -910h-67z" />
<glyph unicode="]" horiz-adv-x="279" d="M10 -133h148v984h-148v56h209v-1097h-209v57z" />
<glyph unicode="^" horiz-adv-x="654" d="M75 415l225 395h54l225 -395h-75l-144 253l-32 70h-2l-32 -70l-144 -253h-75z" />
<glyph unicode="_" horiz-adv-x="658" d="M-10 -108h678v-62h-678v62z" />
<glyph unicode="`" horiz-adv-x="695" d="M234 859l55 54l163 -192l-27 -26z" />
<glyph unicode="a" horiz-adv-x="670" d="M55 178q0 39 14 70.5t35 52t55 35.5t65.5 23t74.5 12.5t74 5.5t73 1q43 0 79 -6l-7 7v34q0 86 -52 124t-134 38q-127 0 -197 -61l-46 47q97 78 243 78q52 0 95.5 -11t80 -36t57 -70.5t20.5 -107.5v-414h-67v69h-2q-72 -80 -216 -80q-105 0 -175 46t-70 143zM122 178 q0 -47 32 -76.5t69 -38.5t77 -9q30 0 64 5.5t70.5 18.5t60 39t23.5 62v130l7 7q-36 4 -74 4q-136 0 -202 -16q-127 -30 -127 -126z" />
<glyph unicode="b" horiz-adv-x="703" d="M90 0v839h67v-309h2q74 110 210 110q137 0 208 -91t71 -240q0 -146 -71 -232.5t-208 -86.5q-144 0 -210 108h-2v-98h-67zM149 309q0 -114 52.5 -184.5t163.5 -70.5q112 0 164 70t52 185q0 116 -52.5 191t-163.5 75q-76 0 -126 -38t-70 -95.5t-20 -132.5z" />
<glyph unicode="c" horiz-adv-x="587" d="M55 310q0 146 77 238t211 92q133 0 207 -72l-47 -50q-60 57 -159 57q-108 -1 -165 -77t-57 -188q0 -111 54.5 -183t165.5 -72q102 0 168 66l47 -48q-80 -83 -215 -83q-141 0 -214 87.5t-73 232.5z" />
<glyph unicode="d" horiz-adv-x="703" d="M55 309q0 149 71.5 240t208.5 91q136 0 209 -110h2v309h67v-839h-67v98h-2q-65 -108 -210 -108q-137 0 -208 86.5t-71 232.5zM122 309q0 -115 52 -185t164 -70q111 0 163.5 70.5t52.5 184.5q0 75 -20 132.5t-70 95.5t-126 38q-75 0 -125 -38t-70.5 -96t-20.5 -132z" />
<glyph unicode="e" d="M55 310q0 149 76.5 239.5t210.5 90.5q139 0 211 -90t72 -240q0 -18 -1 -26h-508l7 -6q25 -223 224 -223q101 0 173 66l47 -48q-88 -83 -220 -83q-145 0 -218.5 87.5t-73.5 232.5zM117 346h446l-7 7q-8 104 -63 163t-150 59q-97 0 -152 -58.5t-67 -163.5z" />
<glyph unicode="f" horiz-adv-x="388" d="M30 569v60h81l-5 7v19q0 88 49.5 139t139.5 51q39 0 73 -13v-61q-36 11 -71 11q-61 0 -92.5 -34.5t-31.5 -94.5v-17l-4 -7h199v-60h-199l4 -7v-562h-67v562l5 7h-81z" />
<glyph unicode="g" horiz-adv-x="703" d="M55 347q0 127 72 210t202 83q72 0 128.5 -28t86.5 -78h2v95h67v-578q0 -266 -273 -266q-137 0 -238 76l48 49q83 -62 190 -62q100 0 153 53t53 150v113h-2q-78 -106 -214 -106q-135 0 -205 77t-70 212zM122 347q0 -103 54.5 -164t156.5 -61q110 0 165.5 61.5t55.5 163.5 t-58 165t-163 63q-104 0 -157.5 -63.5t-53.5 -164.5z" />
<glyph unicode="h" horiz-adv-x="703" d="M90 0v840h67v-306h2q35 50 91 78t124 28q123 0 183.5 -62t60.5 -171v-407h-67v392q0 86 -41 134.5t-147 48.5q-88 0 -147 -51t-59 -145v-379h-67z" />
<glyph unicode="i" horiz-adv-x="247" d="M74 789q0 57 50 57t50 -57t-50 -57t-50 57zM90 0v629h67v-629h-67z" />
<glyph unicode="j" horiz-adv-x="247" d="M-64 -141q35 -11 68 -11q40 0 63 27.5t23 76.5v678h67v-684q0 -161 -151 -161q-40 0 -70 13v61zM74 789q0 57 49 57q50 0 50 -57t-49 -57q-50 0 -50 57z" />
<glyph unicode="k" horiz-adv-x="578" d="M90 0v840h67v-840h-67zM167 323l300 306h91l-300 -305v-3l320 -321h-95z" />
<glyph unicode="l" horiz-adv-x="246" d="M90 0v840h66v-840h-66z" />
<glyph unicode="m" horiz-adv-x="980" d="M90 0v630h68v-100h2q26 53 72.5 81.5t101.5 28.5q57 0 104 -31.5t72 -82.5h2q31 52 82.5 83t106.5 31q194 0 194 -264l-1 -376h-67v351q0 41 -2 69.5t-10.5 60t-23.5 50.5t-41.5 31.5t-64.5 12.5q-78 0 -119 -56.5t-40 -137.5v-381h-68v377q0 45 -5.5 77t-19.5 61.5 t-43 45t-73 15.5q-70 0 -114.5 -56t-44.5 -140v-380h-68z" />
<glyph unicode="n" horiz-adv-x="703" d="M90 0v630h67v-97h2q33 50 90 78.5t124 28.5q120 0 182.5 -60.5t62.5 -174.5v-405h-67v385q0 91 -40.5 140.5t-147.5 49.5q-88 0 -147 -52t-59 -147v-376h-67z" />
<glyph unicode="o" d="M55 315q0 147 73 236t211 89q139 0 212.5 -88t73.5 -237q0 -147 -74 -236t-211 -89q-139 0 -212 88.5t-73 236.5zM122 315q0 -115 54.5 -187.5t163.5 -72.5q110 0 164 72.5t54 187.5t-54 187.5t-164 72.5q-111 0 -164.5 -72t-53.5 -188z" />
<glyph unicode="p" horiz-adv-x="703" d="M90 -210v839h67v-97h2q66 108 210 108q137 0 208 -86.5t71 -232.5q0 -150 -71 -240.5t-208 -90.5q-136 0 -210 110h-2v-310h-67zM149 321q0 -75 20 -132.5t70 -95.5t126 -38q111 0 163.5 75t52.5 191q0 115 -52 184.5t-164 69.5q-111 0 -163.5 -70t-52.5 -184z" />
<glyph unicode="q" horiz-adv-x="703" d="M55 320q0 146 71 232.5t208 86.5q145 0 210 -108h2v98h67v-839h-67v309h-2q-72 -109 -209 -109q-138 0 -209 90.5t-71 239.5zM122 320q0 -74 20.5 -132t70.5 -96t125 -38q76 0 126 38t70 95.5t20 132.5q0 114 -52.5 184t-163.5 70q-112 0 -164 -69.5t-52 -184.5z" />
<glyph unicode="r" horiz-adv-x="400" d="M90 0v630h67v-137h2q25 70 83 107t131 37h7v-76h-17q-39 0 -74 -14t-65.5 -42.5t-48.5 -78.5t-18 -115v-311h-67z" />
<glyph unicode="s" horiz-adv-x="607" d="M55 90l52 52q95 -88 202 -88q83 0 129 30t46 79q0 39 -27.5 64t-92.5 44q-6 1 -30.5 8.5t-50.5 15.5t-31 9q-91 27 -136.5 64.5t-45.5 101.5q0 71 59.5 120.5t175.5 49.5q140 0 229 -95l-51 -50q-70 80 -178 80q-79 0 -123 -29t-44 -73q0 -37 35 -61t113 -46 q3 -1 48 -15.5t53 -16.5q88 -25 126.5 -66.5t38.5 -100.5q0 -74 -58.5 -126t-181.5 -52q-160 0 -257 101z" />
<glyph unicode="t" horiz-adv-x="440" d="M30 569v61h80l-4 7v109l67 36v-145l-4 -7h199v-61h-199l4 -7v-381q0 -61 26 -94t73 -33q61 0 111 44l47 -48q-78 -60 -163 -60q-75 0 -118 48.5t-43 138.5v385l4 7h-80z" />
<glyph unicode="u" horiz-adv-x="695" d="M85 235v395h67v-390q0 -87 39 -136t145 -49q88 0 145 51.5t57 147.5v376h67v-630h-67v97h-2q-33 -50 -88 -78.5t-121 -28.5q-242 0 -242 245z" />
<glyph unicode="v" horiz-adv-x="629" d="M10 630h76l202 -480l25 -75h4l23 75l203 480h76l-270 -630h-69z" />
<glyph unicode="w" horiz-adv-x="860" d="M15 630h72l138 -479l15 -74h3l14 74l144 479h58l145 -479l15 -74h3l14 74l139 479h70l-186 -630h-78l-133 451l-16 82h-2l-16 -82l-136 -451h-78z" />
<glyph unicode="x" horiz-adv-x="583" d="M20 0l230 317l-228 313h84l152 -211l33 -54h2l32 54l154 211h81l-228 -314l231 -316h-84l-156 215l-30 54h-2l-32 -54l-156 -215h-83z" />
<glyph unicode="y" horiz-adv-x="627" d="M15 630h76l204 -478l29 -87h2q39 113 117.5 320t92.5 245h76l-278 -702q-27 -67 -73 -105t-100 -38q-63 0 -106 21v61q42 -18 94 -18q86 0 144 151z" />
<glyph unicode="z" horiz-adv-x="632" d="M60 0v55l379 460l52 50v2h-424v62h502v-52l-378 -459l-55 -54v-2h436v-62h-512z" />
<glyph unicode="{" horiz-adv-x="330" d="M40 311v96q73 14 73 98v236q0 155 115 170l92 3v-54q-82 0 -113.5 -21t-31.5 -71v-262q0 -58 -15 -90t-60 -57q51 -29 63 -56t12 -93v-260q0 -50 31.5 -71t113.5 -21v-54q-71 0 -92 3q-115 15 -115 170v227q0 46 -15.5 73t-57.5 34z" />
<glyph unicode="|" horiz-adv-x="292" d="M115 -50v910h62v-910h-62z" />
<glyph unicode="}" horiz-adv-x="330" d="M10 -142q82 0 113.5 21t31.5 71v260q0 66 12 93t63 56q-45 25 -60 57t-15 90v262q0 50 -31.5 71t-113.5 21v54q72 0 93 -3q65 -8 89.5 -53.5t24.5 -116.5v-236q0 -84 73 -98v-96q-42 -7 -57.5 -34t-15.5 -73v-227q0 -71 -24.5 -116.5t-89.5 -53.5l-93 -3v54z" />
<glyph unicode="~" horiz-adv-x="577" d="M30 293q13 43 57 75.5t99 32.5q40 0 111.5 -41.5t101.5 -41.5q36 0 65.5 24t39.5 59l43 -42q-16 -49 -59.5 -78.5t-98.5 -29.5q-38 0 -109 41.5t-104 41.5t-63 -23.5t-40 -59.5z" />
<glyph horiz-adv-x="1000" />
<glyph unicode="&#xa1;" horiz-adv-x="276" d="M70 744q0 35 17.5 55t50.5 20t50.5 -20t17.5 -55t-17.5 -55t-50.5 -20t-50.5 20t-17.5 55zM94 -1l23 608h42l23 -608h-88z" />
<glyph unicode="&#xa2;" horiz-adv-x="587" d="M55 400q0 144 77 237t211 93q27 0 39 -1l-5 8l16 83h51l-16 -91l-7 -5q82 -23 129 -67l-47 -49q-38 35 -93 52l3 -9l-93 -500l-7 -7q7 -1 21 -1q107 0 176 69l47 -48q-83 -85 -215 -85q-21 0 -41 2l5 -7l-16 -84h-52l18 93l6 5q-103 29 -155 111.5t-52 200.5zM122 400 q0 -190 151 -247l-3 9l93 496l7 6q-7 1 -26 1q-107 0 -164.5 -76.5t-57.5 -188.5z" />
<glyph unicode="&#xa3;" horiz-adv-x="681" d="M55 0v62q29 16 50 33t38 42.5t24.5 56.5t6 74t-14.5 96l3 7h-90v66h76l-7 7q-27 87 -27 156q0 102 65.5 161t186.5 59q72 0 137 -30.5t108 -82.5l-50 -52q-81 98 -199 98q-79 0 -127 -35.5t-48 -113.5q0 -61 24 -159l-4 -8h233v-66h-217l7 -7q25 -116 4 -189.5 t-78 -105.5v-2h448v-67h-549z" />
<glyph unicode="&#xa4;" horiz-adv-x="594" d="M55 600l45 45l72 -71q61 40 126 40q62 0 123 -40l72 71l46 -45l-71 -73q41 -66 41 -124q0 -64 -41 -126l70 -71l-45 -45l-72 71q-61 -39 -123 -39q-67 0 -126 40l-72 -71l-44 45l71 72q-41 64 -41 124q0 59 41 123zM148 403q0 -62 44 -105.5t106 -43.5t106 43.5t44 105.5 t-44 106.5t-106 44.5t-106 -44.5t-44 -106.5z" />
<glyph unicode="&#xa5;" horiz-adv-x="772" d="M25 810h89l223 -326l49 -82h1l48 83l224 325h88l-263 -379l-12 -11h198v-68h-253l5 -10v-96l-4 -8h252v-68h-252l4 -9v-161h-71v161l4 9h-251v68h251l-4 8v96l5 10h-252v68h197l-13 12z" />
<glyph unicode="&#xa6;" horiz-adv-x="292" d="M115 -50v410h62v-410h-62zM115 450v410h62v-410h-62z" />
<glyph unicode="&#xa7;" horiz-adv-x="607" d="M44 366q0 54 33 97t96 92q-59 61 -59 113q0 69 57.5 110t144.5 41q59 0 118 -26t104 -70l-45 -46q-80 80 -177 80q-52 0 -89 -22.5t-37 -67.5q0 -23 11 -44t34 -39.5t37.5 -28t42.5 -26.5l36 -21t33 -19q87 -50 133.5 -95t46.5 -105q0 -55 -30 -100.5t-88 -90.5 q37 -40 51.5 -67t14.5 -66q0 -81 -55.5 -123.5t-140.5 -42.5q-61 0 -123 24t-107 66l45 46q74 -72 185 -72q119 0 119 103q0 30 -26 65q-32 38 -102 81q-21 13 -62.5 36.5t-59.5 34.5q-68 42 -104.5 84.5t-36.5 98.5zM113 376q0 -70 99 -130l191 -115q27 24 43 41t32 45.5 t16 54.5q0 24 -10 45t-29 38.5t-32.5 27t-35.5 23.5l-179 111q-29 -26 -44 -41t-33 -44.5t-18 -55.5z" />
<glyph unicode="&#xa8;" horiz-adv-x="670" d="M157 767q0 60 52 60t52 -60q0 -28 -13.5 -43.5t-38.5 -15.5q-52 0 -52 59zM394 767q0 60 52 60t52 -60q0 -28 -13.5 -43.5t-38.5 -15.5q-52 0 -52 59z" />
<glyph unicode="&#xa9;" horiz-adv-x="949" d="M60 401q0 171 121.5 292.5t293.5 121.5q171 0 292.5 -121.5t121.5 -292.5q0 -172 -121.5 -294t-292.5 -122q-172 0 -293.5 122t-121.5 294zM115 401q0 -149 105.5 -259t254.5 -110q148 0 253.5 110t105.5 259q0 148 -106 258.5t-253 110.5t-253.5 -110.5t-106.5 -258.5z M223 396q0 123 67.5 200.5t184.5 77.5q116 0 181 -60l-41 -42q-53 49 -140 47q-94 -1 -144 -64.5t-50 -158.5q0 -93 47.5 -154t145.5 -61q90 0 147 56l41 -41q-73 -70 -188 -70q-124 0 -187.5 74t-63.5 196z" />
<glyph unicode="&#xaa;" horiz-adv-x="440" d="M30 515q0 31 11.5 55t34 38t45.5 23t56.5 13t56.5 5t55 1q21 0 48 -1l-7 9v20q0 46 -32 67.5t-83 21.5q-79 0 -128 -42l-37 39q66 56 165 56q74 0 122 -35.5t48 -116.5v-274h-55v43h-2q-50 -50 -134 -50q-69 0 -116.5 31t-47.5 97zM84 515q0 -40 34 -57.5t76 -17.5 q28 0 56.5 6t54 24t25.5 45v77l7 8q-26 1 -45 1q-35 0 -56.5 -1t-53.5 -5.5t-51 -13t-33 -25.5t-14 -41z" />
<glyph unicode="&#xab;" horiz-adv-x="532" d="M55 255l184 197l45 -48l-82 -88l-63 -59v-5l63 -59l82 -87l-45 -48zM248 255l184 197l45 -48l-82 -88l-63 -59v-5l63 -59l82 -87l-45 -48z" />
<glyph unicode="&#xac;" horiz-adv-x="558" d="M30 300v70h498v-320h-67v242l8 8h-439z" />
<glyph unicode="&#xad;" horiz-adv-x="375" d="M30 290v70h315v-70h-315z" />
<glyph unicode="&#xae;" horiz-adv-x="949" d="M60 401q0 171 121.5 292.5t293.5 121.5q171 0 292.5 -121.5t121.5 -292.5q0 -172 -121.5 -294t-292.5 -122q-172 0 -293.5 122t-121.5 294zM115 401q0 -149 105.5 -259t254.5 -110q148 0 253.5 110t105.5 259q0 148 -106 258.5t-253 110.5t-253.5 -110.5t-106.5 -258.5z M286 162v476h210q70 0 115.5 -36t45.5 -105q0 -78 -92 -123q39 -31 55 -65l72 -147h-63l-60 123q-18 38 -45.5 55.5t-73.5 17.5h-116l8 -6v-190h-56zM334 411h155q52 0 81 23.5t29 62.5q0 87 -103 87h-162l8 -5v-161z" />
<glyph unicode="&#xaf;" d="M154 742v52h379v-52h-379z" />
<glyph unicode="&#xb0;" horiz-adv-x="428" d="M30 632q0 85 44 136.5t127 51.5q84 0 128 -51.5t44 -136.5q0 -83 -44.5 -135t-126.5 -52q-83 0 -127.5 51.5t-44.5 135.5zM87 632q0 -59 29 -95.5t86 -36.5t85.5 36.5t28.5 95.5q0 60 -28.5 96t-85.5 36q-58 0 -86.5 -36t-28.5 -96z" />
<glyph unicode="&#xb1;" horiz-adv-x="675" d="M90 81v68h495v-68h-495zM90 440v70h216l-3 7v226h68v-226l-4 -7h216v-70h-216l4 -7v-225h-68v225l3 7h-216z" />
<glyph unicode="&#xb2;" horiz-adv-x="406" d="M55 361v82q0 51 26.5 94t78.5 62l54 20q43 16 59.5 33t16.5 41q0 26 -19.5 44.5t-64.5 18.5q-61 0 -104 -57l-44 45q61 71 149 71q71 0 107.5 -36t36.5 -86q0 -90 -108 -129l-64 -23q-65 -24 -65 -113l-6 -8h242v-59h-295z" />
<glyph unicode="&#xb3;" horiz-adv-x="437" d="M55 427l43 44q50 -58 117 -58q54 0 81 23t27 52q0 32 -24.5 54t-71.5 26q-8 1 -36 2t-32 1v56q43 0 65 2q47 5 68.5 27t21.5 47q0 24 -23.5 41.5t-74.5 17.5q-68 0 -114 -55l-43 45q61 68 157 68q78 0 117.5 -36.5t39.5 -87.5q0 -62 -73 -94v-2q36 -11 59 -40.5t23 -66.5 q0 -54 -43 -95.5t-124 -41.5q-95 0 -160 71z" />
<glyph unicode="&#xb4;" horiz-adv-x="695" d="M261 721l163 192l54 -54l-191 -164z" />
<glyph unicode="&#xb5;" horiz-adv-x="693" d="M81 -210v840h68v-376q0 -90 51.5 -141.5t131.5 -51.5q90 0 146 52t56 144v373h67v-631h-67v84h-4q-80 -94 -198 -94q-108 0 -181 94h-2v-293h-68z" />
<glyph unicode="&#xb6;" horiz-adv-x="595" d="M0 566q0 101 70 172.5t168 71.5h287v-60h-66l8 -8v-923h-60v923l8 8h-112l8 -8v-923h-61v496l8 8h-23q-99 0 -167 70.5t-68 172.5z" />
<glyph unicode="&#xb7;" horiz-adv-x="266" d="M60 405q0 35 17.5 55t50.5 20t50.5 -20t17.5 -55t-17.5 -55t-50.5 -20t-50.5 20t-17.5 55z" />
<glyph unicode="&#xb8;" horiz-adv-x="607" d="M226 -151l59 60q27 27 30.5 37t-11.5 28l-24 25l42 5l25 -25q45 -45 4 -87l-85 -85z" />
<glyph unicode="&#xb9;" horiz-adv-x="263" d="M30 699l108 111h50v-454h-58v334l5 41h-2l-26 -36l-35 -38z" />
<glyph unicode="&#xba;" horiz-adv-x="466" d="M30 604q0 97 49 156.5t141 59.5q93 0 142 -59t49 -157t-49.5 -157.5t-141.5 -59.5t-141 59.5t-49 157.5zM84 604q0 -73 34 -118t103 -45t102.5 45t33.5 118q0 72 -34 117t-102 45q-69 0 -103 -44.5t-34 -117.5z" />
<glyph unicode="&#xbb;" horiz-adv-x="532" d="M55 106l82 87l62 59v5q-51 46 -144 147l44 48l185 -197l-185 -197zM248 106l82 87l62 59v5q-51 46 -144 147l44 48l185 -197l-185 -197z" />
<glyph unicode="&#xbc;" horiz-adv-x="715" d="M30 699l108 111h50v-454h-58v334l5 41h-2l-26 -36l-35 -38zM123 -10l291 830h63l-291 -830h-63zM319 109v48l237 298h55v-280l-4 -7h53v-59h-53l4 -7v-103h-60v103l5 7h-237zM388 167l166 1l-4 6v153l4 48h-2q-18 -27 -39.5 -55.5t-49 -62.5t-42.5 -53l-33 -35v-2z" />
<glyph unicode="&#xbd;" horiz-adv-x="736" d="M30 699l108 111h50v-454h-58v334l5 41h-2l-26 -36l-35 -38zM123 -10l291 830h63l-291 -830h-63zM386 -1v82q0 51 26.5 94t78.5 62l54 20q43 15 59.5 32t16.5 41q0 27 -19.5 45.5t-64.5 18.5q-61 0 -105 -57l-43 46q61 71 148 71q71 0 107.5 -36t36.5 -88q0 -89 -107 -128 l-64 -24q-66 -24 -66 -111l-6 -8h243v-60h-295z" />
<glyph unicode="&#xbe;" horiz-adv-x="874" d="M55 427l43 44q50 -58 117 -58q54 0 81 23t27 52q0 32 -24.5 54t-71.5 26q-8 1 -36 2t-32 1v56q43 0 65 2q47 5 68.5 27t21.5 47q0 24 -23.5 41.5t-74.5 17.5q-68 0 -114 -55l-43 45q61 68 157 68q78 0 117.5 -36.5t39.5 -87.5q0 -62 -73 -94v-2q36 -11 59 -40.5t23 -66.5 q0 -54 -43 -95.5t-124 -41.5q-95 0 -160 71zM281 -10l291 830h64l-291 -830h-64zM479 109v48l236 298h55v-280l-4 -7h53v-59h-52l3 -7v-103h-60v103l5 7h-236zM547 167l166 1l-3 6v153l4 48h-3q-17 -28 -39 -56.5t-49 -62t-42 -52.5l-34 -35v-2z" />
<glyph unicode="&#xbf;" horiz-adv-x="609" d="M55 194q0 63 35.5 111t92.5 71l38 15q64 26 83.5 62.5t19.5 115.5v39h70v-48q0 -97 -29 -148t-122 -88l-23 -10q-48 -19 -70 -48t-22 -72q0 -52 49.5 -94t120.5 -42q125 0 202 99l54 -52q-98 -115 -256 -115q-110 0 -176.5 63.5t-66.5 140.5zM291 745q0 35 17.5 55 t50.5 20t50.5 -20t17.5 -55t-17.5 -55t-50.5 -20t-50.5 20t-17.5 55z" />
<glyph unicode="&#xc0;" horiz-adv-x="803" d="M15 0l356 810h62l355 -810h-77l-91 205l3 7h-443l2 -7l-90 -205h-77zM210 279h383l-8 7l-160 365l-22 76h-2l-24 -76l-160 -366zM280 1039l54 53l163 -191l-26 -26z" />
<glyph unicode="&#xc1;" horiz-adv-x="803" d="M15 0l356 810h62l355 -810h-77l-91 205l3 7h-443l2 -7l-90 -205h-77zM210 279h383l-8 7l-160 365l-22 76h-2l-24 -76l-160 -366zM304 902l163 191l54 -53l-191 -164z" />
<glyph unicode="&#xc2;" horiz-adv-x="803" d="M15 0l356 810h62l355 -810h-77l-91 205l3 7h-443l2 -7l-90 -205h-77zM210 279h383l-8 7l-160 365l-22 76h-2l-24 -76l-160 -366zM235 903l165 164h3l166 -165l-29 -30l-137 112h-3l-135 -112z" />
<glyph unicode="&#xc3;" horiz-adv-x="803" d="M15 0l356 810h62l355 -810h-77l-91 205l3 7h-443l2 -7l-90 -205h-77zM173 917q27 93 133 93q40 0 104 -37t95 -37t57 23t35 56l38 -37q-14 -47 -50.5 -75t-84.5 -28q-37 0 -102.5 37t-97.5 37q-30 0 -55 -18t-34 -51zM210 279h383l-8 7l-160 365l-22 76h-2l-24 -76 l-160 -366z" />
<glyph unicode="&#xc4;" horiz-adv-x="803" d="M15 0l356 810h62l355 -810h-77l-91 205l3 7h-443l2 -7l-90 -205h-77zM210 279h383l-8 7l-160 365l-22 76h-2l-24 -76l-160 -366zM232 959q0 59 52 59t52 -59q0 -28 -13.5 -43.5t-38.5 -15.5q-52 0 -52 59zM470 959q0 59 51 59q52 0 52 -59t-52 -59q-51 0 -51 59z" />
<glyph unicode="&#xc5;" horiz-adv-x="803" d="M15 0l355 810h62l356 -810h-77l-91 205l3 7h-443l2 -7l-90 -205h-77zM210 279h383l-8 7l-160 365l-22 76h-2l-24 -76l-160 -366zM306 976q0 46 24.5 73.5t70.5 27.5q47 0 71.5 -27t24.5 -74q0 -46 -24.5 -73.5t-70.5 -27.5q-47 0 -71.5 27.5t-24.5 73.5zM344 976 q0 -28 14.5 -45.5t43.5 -17.5q28 0 43 17.5t15 45.5t-15 45.5t-43 17.5q-29 0 -43.5 -17.5t-14.5 -45.5z" />
<glyph unicode="&#xc6;" horiz-adv-x="1017" d="M15 0l354 810h578v-67h-372l4 -8v-290l-6 -6h334v-68h-334l6 -7v-289l-6 -8h374v-67h-438v204l8 8h-339l4 -8l-88 -204h-79zM207 279h307l-7 7l2 449l4 8h-101l4 -9l-199 -448z" />
<glyph unicode="&#xc7;" horiz-adv-x="755" d="M55 400q0 190 101.5 305t283.5 115q184 0 285 -114l-54 -53q-79 100 -231 100q-80 0 -141.5 -28t-98 -77.5t-54.5 -111.5t-18 -136q0 -152 76.5 -247.5t234.5 -95.5q152 0 232 99l52 -52q-93 -104 -254 -113l12 -12q14 -14 21 -25.5t5 -26.5t-18 -31l-89 -89l-40 42 l59 60q27 27 30.5 37t-11.5 28l-16 16q-179 5 -273 114.5t-94 295.5z" />
<glyph unicode="&#xc8;" horiz-adv-x="730" d="M90 0v810h570v-67h-507l7 -7v-291l-7 -6h459v-68h-459l7 -6v-291l-7 -7h507v-67h-570zM270 1039l54 53l163 -191l-26 -26z" />
<glyph unicode="&#xc9;" horiz-adv-x="730" d="M90 0v810h570v-67h-507l7 -7v-291l-7 -6h459v-68h-459l7 -6v-291l-7 -7h507v-67h-570zM311 900l163 191l54 -53l-191 -164z" />
<glyph unicode="&#xca;" horiz-adv-x="730" d="M90 0v810h570v-67h-507l7 -7v-291l-7 -6h459v-68h-459l7 -6v-291l-7 -7h507v-67h-570zM210 903l165 164h3l166 -165l-29 -30l-137 112h-3l-135 -112z" />
<glyph unicode="&#xcb;" horiz-adv-x="730" d="M90 0v810h570v-67h-507l7 -7v-291l-7 -6h459v-68h-459l7 -6v-291l-7 -7h507v-67h-570zM210 959q0 59 52 59t52 -59q0 -28 -13.5 -43.5t-38.5 -15.5q-52 0 -52 59zM448 959q0 59 51 59q52 0 52 -59t-52 -59q-51 0 -51 59z" />
<glyph unicode="&#xcc;" horiz-adv-x="260" d="M12 1039l54 53l163 -191l-26 -26zM95 0v810h70v-810h-70z" />
<glyph unicode="&#xcd;" horiz-adv-x="260" d="M29 902l163 191l54 -53l-191 -164zM95 0v810h70v-810h-70z" />
<glyph unicode="&#xce;" horiz-adv-x="260" d="M-35 903l165 164h3l166 -165l-29 -30l-137 112h-3l-135 -112zM95 0v810h70v-810h-70z" />
<glyph unicode="&#xcf;" horiz-adv-x="260" d="M-41 959q0 59 52 59t52 -59q0 -28 -13.5 -43.5t-38.5 -15.5q-52 0 -52 59zM95 0v810h70v-810h-70zM197 959q0 59 51 59q52 0 52 -59t-52 -59q-51 0 -51 59z" />
<glyph unicode="&#xd0;" horiz-adv-x="798" d="M25 371v68h70l-5 7v364h294q88 0 154.5 -24t104.5 -61.5t61.5 -92.5t31 -108.5t7.5 -118.5q0 -66 -7.5 -119t-30.5 -108.5t-61 -92.5t-103 -61t-153 -24h-298v364l5 7h-70zM153 67h225q73 0 127 19t85 49t49.5 76t24.5 91t6 103t-6 103t-25 91t-51 76t-86 49t-128 19 h-221l7 -7v-290l-4 -7h199v-68h-200l5 -7v-289z" />
<glyph unicode="&#xd1;" horiz-adv-x="820" d="M90 0v810h67l448 -612l53 -90h2v702h70v-810h-67l-448 613l-53 89h-2v-702h-70zM187 917q27 93 133 93q40 0 104 -37t95 -37t57 23t35 56l38 -37q-14 -47 -50.5 -75t-84.5 -28q-37 0 -102.5 37t-97.5 37q-30 0 -55 -18t-34 -51z" />
<glyph unicode="&#xd2;" horiz-adv-x="844" d="M55 400q0 191 95.5 305.5t271.5 114.5q177 0 272 -114t95 -306q0 -189 -96 -299.5t-271 -110.5q-177 0 -272 110t-95 300zM128 400q0 -152 72.5 -247.5t221.5 -95.5q77 0 135 27t92 74.5t50.5 108t16.5 133.5q0 72 -16.5 133.5t-50 112t-92 79t-135.5 28.5t-134.5 -28 t-92 -77.5t-51 -111.5t-16.5 -136zM303 1039l54 53l163 -191l-26 -26z" />
<glyph unicode="&#xd3;" horiz-adv-x="844" d="M55 400q0 191 95.5 305.5t271.5 114.5q177 0 272 -114t95 -306q0 -189 -96 -299.5t-271 -110.5q-177 0 -272 110t-95 300zM128 400q0 -152 72.5 -247.5t221.5 -95.5q77 0 135 27t92 74.5t50.5 108t16.5 133.5q0 72 -16.5 133.5t-50 112t-92 79t-135.5 28.5t-134.5 -28 t-92 -77.5t-51 -111.5t-16.5 -136zM322 902l163 191l54 -53l-191 -164z" />
<glyph unicode="&#xd4;" horiz-adv-x="844" d="M55 400q0 191 95.5 305.5t271.5 114.5q177 0 272 -114t95 -306q0 -189 -96 -299.5t-271 -110.5q-177 0 -272 110t-95 300zM128 400q0 -152 72.5 -247.5t221.5 -95.5q77 0 135 27t92 74.5t50.5 108t16.5 133.5q0 72 -16.5 133.5t-50 112t-92 79t-135.5 28.5t-134.5 -28 t-92 -77.5t-51 -111.5t-16.5 -136zM259 903l165 164h3l166 -165l-29 -30l-137 112h-3l-135 -112z" />
<glyph unicode="&#xd5;" horiz-adv-x="844" d="M55 400q0 191 95.5 305.5t271.5 114.5q177 0 272 -114t95 -306q0 -189 -96 -299.5t-271 -110.5q-177 0 -272 110t-95 300zM128 400q0 -152 72.5 -247.5t221.5 -95.5q77 0 135 27t92 74.5t50.5 108t16.5 133.5q0 72 -16.5 133.5t-50 112t-92 79t-135.5 28.5t-134.5 -28 t-92 -77.5t-51 -111.5t-16.5 -136zM193 917q27 93 133 93q40 0 104 -37t95 -37t57 23t35 56l38 -37q-14 -47 -50.5 -75t-84.5 -28q-37 0 -102.5 37t-97.5 37q-30 0 -55 -18t-34 -51z" />
<glyph unicode="&#xd6;" horiz-adv-x="844" d="M55 400q0 191 95.5 305.5t271.5 114.5q177 0 272 -114t95 -306q0 -189 -96 -299.5t-271 -110.5q-177 0 -272 110t-95 300zM128 400q0 -152 72.5 -247.5t221.5 -95.5q77 0 135 27t92 74.5t50.5 108t16.5 133.5q0 72 -16.5 133.5t-50 112t-92 79t-135.5 28.5t-134.5 -28 t-92 -77.5t-51 -111.5t-16.5 -136zM256 959q0 59 52 59t52 -59q0 -28 -13.5 -43.5t-38.5 -15.5q-52 0 -52 59zM494 959q0 59 51 59q52 0 52 -59t-52 -59q-51 0 -51 59z" />
<glyph unicode="&#xd7;" horiz-adv-x="589" d="M75 233l178 175l-7 3l-171 167l49 49l165 -169l3 -10l173 179l49 -49l-179 -177l10 -3l169 -166l-49 -49l-164 168l-4 10l-173 -178z" />
<glyph unicode="&#xd8;" horiz-adv-x="844" d="M55 400q0 191 95.5 305.5t271.5 114.5q114 0 199 -51v8l39 69l32 -19l-41 -72l-6 -3q144 -109 144 -352q0 -189 -96 -299.5t-271 -110.5q-110 0 -187 43l-1 -10l-49 -87l-32 19l50 88l7 5q-155 104 -155 352zM128 400q0 -203 118 -291v9l334 586l6 4q-68 45 -164 45 q-77 0 -134.5 -28t-92 -77.5t-51 -111.5t-16.5 -136zM270 94q64 -37 152 -37q77 0 135 27t92 74.5t50.5 108t16.5 133.5q0 197 -106 290l-1 -9l-332 -583z" />
<glyph unicode="&#xd9;" horiz-adv-x="832" d="M85 370v440h70v-439q0 -314 261 -314t261 314v439h70v-440q0 -380 -330 -380q-168 0 -250 95t-82 285zM297 1039l54 53l163 -191l-26 -26z" />
<glyph unicode="&#xda;" horiz-adv-x="832" d="M85 370v440h70v-439q0 -314 261 -314t261 314v439h70v-440q0 -380 -330 -380q-168 0 -250 95t-82 285zM315 902l163 191l54 -53l-191 -164z" />
<glyph unicode="&#xdb;" horiz-adv-x="832" d="M85 370v440h70v-439q0 -314 261 -314t261 314v439h70v-440q0 -380 -330 -380q-168 0 -250 95t-82 285zM251 903l165 164h3l166 -165l-29 -30l-137 112h-3l-135 -112z" />
<glyph unicode="&#xdc;" horiz-adv-x="832" d="M85 370v440h70v-439q0 -314 261 -314t261 314v439h70v-440q0 -380 -330 -380q-168 0 -250 95t-82 285zM244 959q0 59 52 59t52 -59q0 -28 -13.5 -43.5t-38.5 -15.5q-52 0 -52 59zM482 959q0 59 51 59q52 0 52 -59t-52 -59q-51 0 -51 59z" />
<glyph unicode="&#xdd;" horiz-adv-x="752" d="M15 810h89l206 -301l65 -103h2q38 62 83 129t102.5 149.5t86.5 125.5h88l-325 -468v-342h-71v342zM280 901l163 191l55 -53l-191 -164z" />
<glyph unicode="&#xde;" horiz-adv-x="747" d="M90 0v810h69v-153l-7 -8h296q121 0 187.5 -67.5t66.5 -177.5q0 -107 -67.5 -176t-187.5 -69h-294l7 -8v-151h-70zM153 226h294q89 0 135.5 49t46.5 129q0 82 -46.5 130t-135.5 48h-294l7 -7v-342z" />
<glyph unicode="&#xdf;" horiz-adv-x="656" d="M90 0v655q0 103 54.5 146.5t156.5 43.5q98 0 169 -60t71 -152q0 -115 -96 -168v-3q73 -24 114.5 -85t41.5 -142q0 -107 -66.5 -176.5t-166.5 -69.5q-75 0 -134 18v66q56 -20 125 -20q78 0 126.5 49t48.5 132q0 82 -50.5 134t-130.5 52h-116v61h79q72 -1 114.5 37.5 t42.5 109.5q0 73 -50 113.5t-123 40.5q-77 0 -110 -36t-33 -114v-632h-67z" />
<glyph unicode="&#xe0;" horiz-adv-x="670" d="M55 178q0 39 14 70.5t35 52t55 35.5t65.5 23t74.5 12.5t74 5.5t73 1q43 0 79 -6l-7 7v34q0 86 -52 124t-134 38q-127 0 -197 -61l-46 47q97 78 243 78q52 0 95.5 -11t80 -36t57 -70.5t20.5 -107.5v-414h-67v69h-2q-72 -80 -216 -80q-105 0 -175 46t-70 143zM122 178 q0 -47 32 -76.5t69 -38.5t77 -9q30 0 64 5.5t70.5 18.5t60 39t23.5 62v130l7 7q-36 4 -74 4q-136 0 -202 -16q-127 -30 -127 -126zM224 859l55 54l163 -192l-27 -26z" />
<glyph unicode="&#xe1;" horiz-adv-x="670" d="M55 178q0 39 14 70.5t35 52t55 35.5t65.5 23t74.5 12.5t74 5.5t73 1q43 0 79 -6l-7 7v34q0 86 -52 124t-134 38q-127 0 -197 -61l-46 47q97 78 243 78q52 0 95.5 -11t80 -36t57 -70.5t20.5 -107.5v-414h-67v69h-2q-72 -80 -216 -80q-105 0 -175 46t-70 143zM122 178 q0 -47 32 -76.5t69 -38.5t77 -9q30 0 64 5.5t70.5 18.5t60 39t23.5 62v130l7 7q-36 4 -74 4q-136 0 -202 -16q-127 -30 -127 -126zM251 721l163 192l54 -54l-191 -164z" />
<glyph unicode="&#xe2;" horiz-adv-x="670" d="M55 178q0 39 14 70.5t35 52t55 35.5t65.5 23t74.5 12.5t74 5.5t73 1q43 0 79 -6l-7 7v34q0 86 -52 124t-134 38q-127 0 -197 -61l-46 47q97 78 243 78q52 0 95.5 -11t80 -36t57 -70.5t20.5 -107.5v-414h-67v69h-2q-72 -80 -216 -80q-105 0 -175 46t-70 143zM122 178 q0 -47 32 -76.5t69 -38.5t77 -9q30 0 64 5.5t70.5 18.5t60 39t23.5 62v130l7 7q-36 4 -74 4q-136 0 -202 -16q-127 -30 -127 -126zM162 726l165 164h3l166 -165l-29 -30l-137 112h-3l-135 -112z" />
<glyph unicode="&#xe3;" horiz-adv-x="670" d="M55 178q0 39 14 70.5t35 52t55 35.5t65.5 23t74.5 12.5t74 5.5t73 1q43 0 79 -6l-7 7v34q0 86 -52 124t-134 38q-127 0 -197 -61l-46 47q97 78 243 78q52 0 95.5 -11t80 -36t57 -70.5t20.5 -107.5v-414h-67v69h-2q-72 -80 -216 -80q-105 0 -175 46t-70 143zM95 755 q27 93 133 93q40 0 104 -37t95 -37t57 23t35 56l38 -37q-14 -47 -50.5 -75t-84.5 -28q-37 0 -102.5 37t-97.5 37q-30 0 -55 -18t-34 -51zM122 178q0 -47 32 -76.5t69 -38.5t77 -9q30 0 64 5.5t70.5 18.5t60 39t23.5 62v130l7 7q-36 4 -74 4q-136 0 -202 -16 q-127 -30 -127 -126z" />
<glyph unicode="&#xe4;" horiz-adv-x="670" d="M55 178q0 39 14 70.5t35 52t55 35.5t65.5 23t74.5 12.5t74 5.5t73 1q43 0 79 -6l-7 7v34q0 86 -52 124t-134 38q-127 0 -197 -61l-46 47q97 78 243 78q52 0 95.5 -11t80 -36t57 -70.5t20.5 -107.5v-414h-67v69h-2q-72 -80 -216 -80q-105 0 -175 46t-70 143zM122 178 q0 -47 32 -76.5t69 -38.5t77 -9q30 0 64 5.5t70.5 18.5t60 39t23.5 62v130l7 7q-36 4 -74 4q-136 0 -202 -16q-127 -30 -127 -126zM157 767q0 60 52 60t52 -60q0 -28 -13.5 -43.5t-38.5 -15.5q-52 0 -52 59zM394 767q0 60 52 60t52 -60q0 -28 -13.5 -43.5t-38.5 -15.5 q-52 0 -52 59z" />
<glyph unicode="&#xe5;" horiz-adv-x="670" d="M55 178q0 39 14 70.5t35 52t55 35.5t65.5 23t74.5 12.5t74 5.5t73 1q43 0 79 -6l-7 7v34q0 86 -52 124t-134 38q-127 0 -197 -61l-46 47q97 78 243 78q52 0 95.5 -11t80 -36t57 -70.5t20.5 -107.5v-414h-67v69h-2q-72 -80 -216 -80q-105 0 -175 46t-70 143zM122 178 q0 -47 32 -76.5t69 -38.5t77 -9q30 0 64 5.5t70.5 18.5t60 39t23.5 62v130l7 7q-36 4 -74 4q-136 0 -202 -16q-127 -30 -127 -126zM234 796q0 46 24.5 73.5t70.5 27.5q47 0 71.5 -27.5t24.5 -73.5t-24.5 -73.5t-71.5 -27.5q-46 0 -70.5 27.5t-24.5 73.5zM271 796 q0 -28 14.5 -45.5t43.5 -17.5t43.5 17.5t14.5 45.5t-14.5 45.5t-43.5 17.5t-43.5 -17.5t-14.5 -45.5z" />
<glyph unicode="&#xe6;" horiz-adv-x="1138" d="M55 178q0 39 14 70.5t35 52t55 35.5t65.5 23t74.5 12.5t74 5.5t73 1q43 0 77 -6l-5 8v33q0 86 -52 124t-134 38q-127 0 -197 -61l-46 47q97 78 243 78q164 0 234 -125h2q89 126 232 126q139 0 211 -90t72 -240q0 -18 -1 -26h-506l6 -7q23 -222 223 -222q101 0 173 66 l47 -48q-88 -83 -220 -83q-150 0 -240 112h-3q-47 -67 -108.5 -90t-153.5 -23q-105 0 -175 46t-70 143zM122 178q0 -47 32 -76.5t69 -38.5t77 -9q30 0 63.5 5.5t70.5 18t60.5 38.5t23.5 62v131l6 7q-36 4 -73 4q-136 0 -202 -16q-127 -30 -127 -126zM577 346h446l-8 8 q-8 100 -64 160.5t-150 60.5q-96 0 -152 -60t-65 -161z" />
<glyph unicode="&#xe7;" horiz-adv-x="587" d="M55 310q0 146 77 238t211 92q133 0 207 -72l-47 -50q-60 57 -159 57q-108 -1 -165 -77t-57 -188q0 -111 54.5 -183t165.5 -72q102 0 168 66l47 -48q-72 -75 -191 -83l11 -11q14 -14 21 -25.5t5 -26.5t-18 -31l-89 -89l-40 42l59 60q27 27 30.5 37t-11.5 28l-16 16 q-129 8 -196 95t-67 225z" />
<glyph unicode="&#xe8;" d="M55 310q0 149 76.5 239.5t210.5 90.5q139 0 211 -90t72 -240q0 -18 -1 -26h-508l7 -6q25 -223 224 -223q101 0 173 66l47 -48q-88 -83 -220 -83q-145 0 -218.5 87.5t-73.5 232.5zM117 346h446l-7 7q-8 104 -63 163t-150 59q-97 0 -152 -58.5t-67 -163.5zM220 859l55 54 l163 -192l-27 -26z" />
<glyph unicode="&#xe9;" d="M55 310q0 149 76.5 239.5t210.5 90.5q139 0 211 -90t72 -240q0 -18 -1 -26h-508l7 -6q25 -223 224 -223q101 0 173 66l47 -48q-88 -83 -220 -83q-145 0 -218.5 87.5t-73.5 232.5zM117 346h446l-7 7q-8 104 -63 163t-150 59q-97 0 -152 -58.5t-67 -163.5zM256 721l163 192 l54 -54l-191 -164z" />
<glyph unicode="&#xea;" d="M55 310q0 149 76.5 239.5t210.5 90.5q139 0 211 -90t72 -240q0 -18 -1 -26h-508l7 -6q25 -223 224 -223q101 0 173 66l47 -48q-88 -83 -220 -83q-145 0 -218.5 87.5t-73.5 232.5zM117 346h446l-7 7q-8 104 -63 163t-150 59q-97 0 -152 -58.5t-67 -163.5zM181 726l165 164 h3l166 -165l-29 -30l-137 112h-3l-135 -112z" />
<glyph unicode="&#xeb;" d="M55 310q0 149 76.5 239.5t210.5 90.5q139 0 211 -90t72 -240q0 -18 -1 -26h-508l7 -6q25 -223 224 -223q101 0 173 66l47 -48q-88 -83 -220 -83q-145 0 -218.5 87.5t-73.5 232.5zM117 346h446l-7 7q-8 104 -63 163t-150 59q-97 0 -152 -58.5t-67 -163.5zM171 767 q0 60 52 60t52 -60q0 -28 -13.5 -43.5t-38.5 -15.5q-52 0 -52 59zM408 767q0 60 52 60t52 -60q0 -28 -13.5 -43.5t-38.5 -15.5q-52 0 -52 59z" />
<glyph unicode="&#xec;" horiz-adv-x="247" d="M5 859l55 54l163 -192l-27 -26zM90 0v629h67v-629h-67z" />
<glyph unicode="&#xed;" horiz-adv-x="247" d="M31 721l163 192l54 -54l-191 -164zM90 0v629h67v-629h-67z" />
<glyph unicode="&#xee;" horiz-adv-x="247" d="M-41 726l165 164h3l166 -165l-29 -30l-137 112h-3l-135 -112zM90 0v629h67v-629h-67z" />
<glyph unicode="&#xef;" horiz-adv-x="247" d="M-43 767q0 60 52 60t52 -60q0 -28 -13.5 -43.5t-38.5 -15.5q-52 0 -52 59zM90 0v629h67v-629h-67zM194 767q0 60 52 60t52 -60q0 -28 -13.5 -43.5t-38.5 -15.5q-52 0 -52 59z" />
<glyph unicode="&#xf0;" horiz-adv-x="650" d="M55 295q0 139 69.5 222.5t200.5 83.5q24 0 83 -9l-79 124v9l-87 -53l-27 43l87 53l-9 4l-47 74h74l27 -42v-9l75 46l26 -43l-74 -46l8 -3l167 -263q46 -73 46 -191q0 -138 -70 -221.5t-200 -83.5q-131 0 -200.5 83t-69.5 222zM119 295q0 -107 51.5 -175t154.5 -68 q104 0 155 67.5t51 175.5t-51 175.5t-155 67.5q-105 0 -155.5 -67t-50.5 -176z" />
<glyph unicode="&#xf1;" horiz-adv-x="703" d="M90 0v630h67v-97h2q33 50 90 78.5t124 28.5q120 0 182.5 -60.5t62.5 -174.5v-405h-67v385q0 91 -40.5 140.5t-147.5 49.5q-88 0 -147 -52t-59 -147v-376h-67zM135 755q27 93 133 93q40 0 104 -37t95 -37t57 23t35 56l38 -37q-14 -47 -50.5 -75t-84.5 -28q-37 0 -102.5 37 t-97.5 37q-30 0 -55 -18t-34 -51z" />
<glyph unicode="&#xf2;" d="M55 315q0 147 73 236t211 89q139 0 212.5 -88t73.5 -237q0 -147 -74 -236t-211 -89q-139 0 -212 88.5t-73 236.5zM122 315q0 -115 54.5 -187.5t163.5 -72.5q110 0 164 72.5t54 187.5t-54 187.5t-164 72.5q-111 0 -164.5 -72t-53.5 -188zM214 859l55 54l163 -192l-27 -26z " />
<glyph unicode="&#xf3;" d="M55 315q0 147 73 236t211 89q139 0 212.5 -88t73.5 -237q0 -147 -74 -236t-211 -89q-139 0 -212 88.5t-73 236.5zM122 315q0 -115 54.5 -187.5t163.5 -72.5q110 0 164 72.5t54 187.5t-54 187.5t-164 72.5q-111 0 -164.5 -72t-53.5 -188zM254 721l163 192l54 -54 l-191 -164z" />
<glyph unicode="&#xf4;" d="M55 315q0 147 73 236t211 89q139 0 212.5 -88t73.5 -237q0 -147 -74 -236t-211 -89q-139 0 -212 88.5t-73 236.5zM122 315q0 -115 54.5 -187.5t163.5 -72.5q110 0 164 72.5t54 187.5t-54 187.5t-164 72.5q-111 0 -164.5 -72t-53.5 -188zM173 726l165 164h3l166 -165 l-29 -30l-137 112h-3l-135 -112z" />
<glyph unicode="&#xf5;" d="M55 315q0 147 73 236t211 89q139 0 212.5 -88t73.5 -237q0 -147 -74 -236t-211 -89q-139 0 -212 88.5t-73 236.5zM111 755q27 93 133 93q40 0 104 -37t95 -37t57 23t35 56l38 -37q-14 -47 -50.5 -75t-84.5 -28q-37 0 -102.5 37t-97.5 37q-30 0 -55 -18t-34 -51zM122 315 q0 -115 54.5 -187.5t163.5 -72.5q110 0 164 72.5t54 187.5t-54 187.5t-164 72.5q-111 0 -164.5 -72t-53.5 -188z" />
<glyph unicode="&#xf6;" d="M55 315q0 147 73 236t211 89q139 0 212.5 -88t73.5 -237q0 -147 -74 -236t-211 -89q-139 0 -212 88.5t-73 236.5zM122 315q0 -115 54.5 -187.5t163.5 -72.5q110 0 164 72.5t54 187.5t-54 187.5t-164 72.5q-111 0 -164.5 -72t-53.5 -188zM169 767q0 60 52 60t52 -60 q0 -28 -13.5 -43.5t-38.5 -15.5q-52 0 -52 59zM406 767q0 60 52 60t52 -60q0 -28 -13.5 -43.5t-38.5 -15.5q-52 0 -52 59z" />
<glyph unicode="&#xf7;" horiz-adv-x="675" d="M90 371v68h495v-68h-495zM271 205q0 35 17.5 55t49.5 20q33 0 50.5 -20t17.5 -55t-17.5 -55t-50.5 -20q-32 0 -49.5 20t-17.5 55zM271 605q0 35 17.5 55t49.5 20q33 0 50.5 -20t17.5 -55t-17.5 -55t-50.5 -20q-32 0 -49.5 20t-17.5 55z" />
<glyph unicode="&#xf8;" d="M55 315q0 147 73 236t211 89q85 0 152 -37l-1 6l42 74l33 -19l-44 -75l-5 -3q109 -84 109 -271q0 -147 -74 -236t-211 -89q-84 0 -147 35v-7l-43 -74l-32 19l44 76l5 3q-112 87 -112 273zM122 315q0 -141 80 -213l1 9l248 431l7 2q-49 31 -118 31q-111 0 -164.5 -72 t-53.5 -188zM227 83q48 -28 113 -28q110 0 164 72.5t54 187.5q0 143 -76 211l-1 -7l-249 -432z" />
<glyph unicode="&#xf9;" horiz-adv-x="695" d="M85 235v395h67v-390q0 -87 39 -136t145 -49q88 0 145 51.5t57 147.5v376h67v-630h-67v97h-2q-33 -50 -87.5 -78.5t-121.5 -28.5q-242 0 -242 245zM220 859l55 54l163 -192l-27 -26z" />
<glyph unicode="&#xfa;" horiz-adv-x="695" d="M85 235v395h67v-390q0 -87 39 -136t145 -49q88 0 145 51.5t57 147.5v376h67v-630h-67v97h-2q-33 -50 -87.5 -78.5t-121.5 -28.5q-242 0 -242 245zM263 721l163 192l54 -54l-191 -164z" />
<glyph unicode="&#xfb;" horiz-adv-x="695" d="M85 235v395h67v-390q0 -87 39 -136t145 -49q88 0 145 51.5t57 147.5v376h67v-630h-67v97h-2q-33 -50 -87.5 -78.5t-121.5 -28.5q-242 0 -242 245zM180 726l165 164h3l166 -165l-29 -30l-137 112h-3l-135 -112z" />
<glyph unicode="&#xfc;" horiz-adv-x="695" d="M85 235v395h67v-390q0 -87 39 -136t145 -49q88 0 145 51.5t57 147.5v376h67v-630h-67v97h-2q-33 -50 -87.5 -78.5t-121.5 -28.5q-242 0 -242 245zM169 767q0 60 52 60t52 -60q0 -28 -13.5 -43.5t-38.5 -15.5q-52 0 -52 59zM406 767q0 60 52 60t52 -60q0 -28 -13.5 -43.5 t-38.5 -15.5q-52 0 -52 59z" />
<glyph unicode="&#xfd;" horiz-adv-x="627" d="M15 630h76l204 -478l29 -87h2q39 113 117.5 320t92.5 245h76l-278 -702q-27 -67 -73 -105t-100 -38q-63 0 -106 21v61q42 -18 94 -18q86 0 144 151zM222 722l163 191l54 -53l-191 -164z" />
<glyph unicode="&#xfe;" horiz-adv-x="703" d="M90 -210v1050h67v-313h2q73 113 210 113q136 0 207.5 -89.5t71.5 -235.5q0 -148 -70.5 -236.5t-208.5 -88.5q-68 0 -118.5 26t-91.5 84h-2v-310h-67zM149 315q0 -116 52 -188.5t164 -72.5q111 0 163.5 73t52.5 188t-52.5 187.5t-163.5 72.5t-163.5 -73t-52.5 -187z" />
<glyph unicode="&#xff;" horiz-adv-x="627" d="M15 630h76l204 -478l29 -87h2q39 113 117.5 320t92.5 245h76l-278 -702q-27 -67 -73 -105t-100 -38q-63 0 -106 21v61q42 -18 94 -18q86 0 144 151zM141 767q0 60 52 60t52 -60q0 -28 -13.5 -43.5t-38.5 -15.5q-52 0 -52 59zM378 767q0 60 52 60t52 -60 q0 -28 -13.5 -43.5t-38.5 -15.5q-52 0 -52 59z" />
<glyph unicode="&#x152;" horiz-adv-x="1092" d="M55 400q0 192 79 306t223 114q124 0 217 -103h2v93h446v-67h-384l10 -7v-291l-10 -6h344v-68h-344l10 -6v-291l-10 -7h384v-67h-446v90h-2q-94 -100 -217 -100q-145 0 -223.5 109.5t-78.5 300.5zM130 400q0 -150 56.5 -246.5t171.5 -96.5q79 0 131.5 48.5t74 123 t21.5 171.5q0 96 -21.5 172.5t-74 128.5t-131.5 52q-78 0 -131 -50.5t-75 -127.5t-22 -175z" />
<glyph unicode="&#x153;" horiz-adv-x="1180" d="M55 315q0 147 73 236t211 89q185 0 253 -152h2q35 72 99 112t149 40q139 0 211 -90t72 -240q0 -18 -1 -26h-508l7 -6q25 -223 224 -223q101 0 173 66l47 -48q-88 -83 -220 -83q-185 0 -257 148h-2q-70 -148 -248 -148q-139 0 -212 88.5t-73 236.5zM122 315 q0 -115 54.5 -187.5t163.5 -72.5q110 0 164 72.5t54 187.5t-54 187.5t-164 72.5q-111 0 -164.5 -72t-53.5 -188zM617 346h446l-7 7q-8 104 -63 163t-150 59q-97 0 -152 -58.5t-67 -163.5z" />
<glyph unicode="&#x178;" horiz-adv-x="752" d="M15 810h89l218 -318l54 -90h1l54 90l218 318h88l-325 -468v-342h-71v342zM204 959q0 59 52 59t52 -59q0 -28 -13.5 -43.5t-38.5 -15.5q-52 0 -52 59zM442 959q0 59 51 59q52 0 52 -59t-52 -59q-51 0 -51 59z" />
<glyph unicode="&#x2c6;" horiz-adv-x="637" d="M156 726l165 164h3l166 -165l-29 -30l-137 112h-3l-135 -112z" />
<glyph unicode="&#x2dc;" horiz-adv-x="703" d="M135 755q27 93 133 93q40 0 104 -37t95 -37t57 23t35 56l38 -37q-14 -47 -50.5 -75t-84.5 -28q-37 0 -102.5 37t-97.5 37q-30 0 -55 -18t-34 -51z" />
<glyph unicode="&#x2000;" horiz-adv-x="546" />
<glyph unicode="&#x2001;" horiz-adv-x="1093" />
<glyph unicode="&#x2002;" horiz-adv-x="546" />
<glyph unicode="&#x2003;" horiz-adv-x="1093" />
<glyph unicode="&#x2004;" horiz-adv-x="364" />
<glyph unicode="&#x2005;" horiz-adv-x="273" />
<glyph unicode="&#x2006;" horiz-adv-x="182" />
<glyph unicode="&#x2007;" horiz-adv-x="182" />
<glyph unicode="&#x2008;" horiz-adv-x="136" />
<glyph unicode="&#x2009;" horiz-adv-x="218" />
<glyph unicode="&#x200a;" horiz-adv-x="60" />
<glyph unicode="&#x2010;" horiz-adv-x="375" d="M30 290v70h315v-70h-315z" />
<glyph unicode="&#x2011;" horiz-adv-x="375" d="M30 290v70h315v-70h-315z" />
<glyph unicode="&#x2012;" horiz-adv-x="375" d="M30 290v70h315v-70h-315z" />
<glyph unicode="&#x2013;" horiz-adv-x="590" d="M30 290v70h530v-70h-530z" />
<glyph unicode="&#x2014;" horiz-adv-x="865" d="M30 290v70h805v-70h-805z" />
<glyph unicode="&#x2018;" horiz-adv-x="219" d="M45 625q0 22 11 46l74 154l44 -19l-49 -104l-9 -6q58 -4 58 -71q0 -33 -16.5 -52t-47.5 -19q-65 0 -65 71z" />
<glyph unicode="&#x2019;" horiz-adv-x="219" d="M45 567l49 104l9 7q-58 3 -58 70q0 33 16.5 52t47.5 19q65 0 65 -71q0 -22 -11 -46l-74 -154z" />
<glyph unicode="&#x201a;" horiz-adv-x="219" d="M45 65q0 33 16.5 52t47.5 19q32 0 48.5 -19t16.5 -52q0 -22 -11 -46l-74 -154l-44 19l49 103l9 7q-58 4 -58 71z" />
<glyph unicode="&#x201c;" horiz-adv-x="389" d="M45 625q0 22 11 46l74 154l44 -19l-49 -104l-9 -6q58 -4 58 -71q0 -33 -16.5 -52t-47.5 -19q-65 0 -65 71zM215 625q0 22 11 46l74 154l44 -19l-49 -104l-9 -6q58 -4 58 -71q0 -33 -16.5 -52t-47.5 -19q-65 0 -65 71z" />
<glyph unicode="&#x201d;" horiz-adv-x="389" d="M45 567l49 104l9 7q-58 3 -58 70q0 33 16.5 52t47.5 19q65 0 65 -71q0 -22 -11 -46l-74 -154zM215 567l49 104l9 7q-58 3 -58 70q0 33 16.5 52t47.5 19q65 0 65 -71q0 -22 -11 -46l-74 -154z" />
<glyph unicode="&#x201e;" horiz-adv-x="389" d="M45 65q0 33 16.5 52t47.5 19q32 0 48.5 -19t16.5 -52q0 -22 -11 -46l-74 -154l-44 19l49 103l9 7q-58 4 -58 71zM215 65q0 33 16.5 52t47.5 19q32 0 48.5 -19t16.5 -52q0 -22 -11 -46l-74 -154l-44 19l49 103l9 7q-58 4 -58 71z" />
<glyph unicode="&#x2022;" horiz-adv-x="333" d="M0 405q0 50 35.5 85.5t86.5 35.5q50 0 85.5 -35.5t35.5 -85.5q0 -51 -35.5 -86.5t-85.5 -35.5q-51 0 -86.5 35.5t-35.5 86.5z" />
<glyph unicode="&#x2026;" horiz-adv-x="779" d="M60 62q0 33 16.5 52t47.5 19q32 0 48.5 -19t16.5 -52t-17 -52.5t-48 -19.5t-47.5 19t-16.5 53zM320 62q0 33 16.5 52t47.5 19q32 0 48.5 -19t16.5 -52t-17 -52.5t-48 -19.5t-47.5 19t-16.5 53zM580 62q0 33 16.5 52t47.5 19q32 0 48.5 -19t16.5 -52t-17 -52.5t-48 -19.5 t-47.5 19t-16.5 53z" />
<glyph unicode="&#x202f;" horiz-adv-x="218" />
<glyph unicode="&#x2039;" horiz-adv-x="339" d="M55 255l184 197l45 -48l-82 -88l-63 -59v-5l63 -59l82 -87l-45 -48z" />
<glyph unicode="&#x203a;" horiz-adv-x="339" d="M55 106l82 87l62 59v5q-51 46 -144 147l44 48l185 -197l-185 -197z" />
<glyph unicode="&#x205f;" horiz-adv-x="273" />
<glyph unicode="&#x20ac;" horiz-adv-x="733" d="M40 290v70h81l-4 7v33q0 29 1 43l4 7h-82v70h91l-4 8q25 137 101.5 214.5t193.5 77.5q162 0 241 -114l-50 -52q-63 99 -191 99q-90 0 -145 -61.5t-75 -163.5l-6 -8h321v-70h-330l4 -8q-1 -14 -1 -42q0 -22 1 -33l-4 -7h330v-70h-323l6 -8q19 -102 73 -163.5t148 -61.5 q127 0 192 98l48 -51q-80 -114 -240 -114q-122 0 -198 77t-98 215l4 8h-89z" />
<glyph unicode="&#x2122;" horiz-adv-x="797" d="M30 776v34h325v-34h-147l2 -3v-368h-35v368l2 3h-147zM382 405v405h31l140 -287l21 -47h1q30 67 89.5 188t71.5 146h31v-405h-35v327h-1q-21 -51 -47 -107t-58.5 -121.5t-50.5 -103.5h-1l-129 265l-27 67h-1v-327h-35z" />
<glyph unicode="&#x25fc;" horiz-adv-x="630" d="M0 0v630h630v-630h-630z" />
<glyph unicode="&#xfb01;" horiz-adv-x="635" d="M30 569v60h81l-5 7v19q0 88 49.5 139t139.5 51q39 0 73 -13v-61q-36 11 -71 11q-61 0 -92.5 -34.5t-31.5 -94.5v-17l-4 -7h376v-629h-67v569h-309l4 -7v-562h-67v562l5 7h-81zM462 789q0 57 50 57t50 -57t-50 -57t-50 57z" />
<glyph unicode="&#xfb02;" horiz-adv-x="634" d="M30 569v60h81l-5 7v19q0 87 49.5 136t139.5 49l249 -1v-839h-66v778l-181 -1q-61 0 -92.5 -32.5t-31.5 -91.5v-17l-4 -7h199v-60h-199l4 -7v-562h-67v562l5 7h-81z" />
</font>
</defs>
</svg>
